WK綜合論壇, WK综合论坛

查看:247 回復:0 發表於 2020-10-17 12:38:04
本主題由 212love 於 4 天前 刪除回復
累計簽到︰2096 天
連續簽到︰1 天
發表於 2020-10-17 12:38:04 | 顯示全部樓層 |閱讀模式
VIP精品區,資源無限好賺金任務區,輕松賺金幣
加入VIP,享受高級特權宣傳賺金又升級,超級棒

正義的子彈 Bullets.of.Justice., 2019.[MKV / 5.80G] [複製鏈接]

影視分享
分類: 電影
題材: 犯罪 恐怖 其它 
地區: 美國 
語言: 英语 
格式: MKV 
年份: 2019
資源: BT资源
2.png
, m; B: E4 _, ^. ?
: H2 Z7 ^; k  K+ e* P◎译  名 正义的子弹
% X# d5 J# m* y  s9 Q◎片  名 Bullets of Justice
$ u' {! C: m. W( c# s0 X6 u, g◎年  代 20190 A4 j- m; ]* b
◎产  地 美国4 s) g4 V& [: Z6 z3 w9 e
◎类  别 恐怖 / 犯罪 / 黑色电影
% a3 p5 F6 s, C% {* p4 c◎语  言 英语
( R3 n, N' [. c' S: R" I◎上映日期 2017-01-13
$ s' `5 d, h: a% Q3 x8 r+ V◎IMDb评分 6.2/10 from 83 users. k" _3 l! a+ S) L$ p1 D
◎IMDb链接 https://www.imdb.com/title/tt6421398/
! z! r2 B3 v% v3 H3 j◎豆瓣评分 /10 from 0 users# M; Y& y- C# h' `
◎豆瓣链接 https://movie.douban.com/subject/26966754/
& J9 X1 l2 x# j$ D◎导  演 瓦列·米利夫 Valeri Milev
9 ?5 d" c/ I+ O- G/ |* m7 q, g, l  w# l◎编  剧 瓦列·米利夫 Valeri Milev1 f9 A8 p$ }2 _* x" M9 Y
◎主  演 丹尼·特雷霍 Danny Trejo7 i2 c  c# ]; S
0 h0 T8 T. H2 d+ j
◎标  签 正义的子弹 | 很想看 | 恐怖 | 超刺激 | 惊悚 | 科幻 | 魔幻 | 66
) o8 Z9 j4 L) @) E
  H! ^3 @3 S8 c# o. P* ^" F◎简  介
; K' D: s, x: E: L' P, l# |; ~; L0 Z9 O
  在第三次世界大战期间,美国政府发起了一个秘密的项目代号为“陆军培根”,以创造超级士兵近交人与猪。25年后,一种叫做“枪口”已经占据食物链的顶端,吃和人类饲养动物一样。罗布正义是一个前赏金猎人工作的最后一行人类抵抗-一组幸存者躲藏在核掩体深处地下。他的任务是找出枪口上台并消灭他们。
: t, Y5 ^; }. J9 o6 wVideo
$ R) n- U6 L- n# hID : 12 Q1 `9 c$ y& f) e! s) M( J
Format : AVC
8 [1 S/ O% z# w0 [5 R- S, y! \) dFormat/Info : Advanced Video Codec
9 m. {! ^4 m6 D- S) N/ v% vFormat profile : [email protected]
, Q' l; O$ u5 C2 w6 t. CFormat settings : CABAC / 4 Ref Frames
3 P  L. a+ ^! c3 IFormat settings, CABAC : Yes3 m$ N& E3 Z. w+ b
Format settings, Reference frames : 4 frames, T) G6 Z& a! s: `) I0 @
Codec ID : V_MPEG4/ISO/AVC
1 j8 p; q* T( n3 ~. J0 g9 F  hDuration : 1 h 19 min
# Q) z7 O$ e& n9 ~Bit rate mode : Constant
; Z/ y2 W3 J( M+ k0 wBit rate : 10 000 kb/s8 i7 E! }1 s& \
Width : 1 920 pixels
: J2 `3 d0 q5 U: _/ k' xHeight : 816 pixels
$ P6 T, y, Q4 ~, y, R* F, oDisplay aspect ratio : 2.35:1% U8 o* \' i) x- n* a$ I% e
Frame rate mode : Constant
# [% ^3 M1 l& B; y7 B2 U0 v% d7 r/ _0 KFrame rate : 24.000 FPS4 n, G$ U' G' X, |. x$ W
Color space : YUV+ @. Z" y* I1 U2 J
Chroma subsampling : 4:2:0
8 X( q' q8 R" ~" p7 vBit depth : 8 bits
/ ^" y, y$ O) W; p3 l! PScan type : Progressive
% `* U& R2 v2 ?: O* T; w+ \9 h$ CBits/(Pixel*Frame) : 0.266
# Q1 R5 n3 c0 g4 F* i( _Stream size : 5.44 GiB (94%)
2 U/ r# n5 y0 }; j$ G% }+ z( BDefault : Yes4 L0 l3 H1 N. [* ^: B. x
Forced : No
( t' r! Z7 @9 O  r; C- gColor range : Limited" ]* _8 t! t6 w7 K! }/ T
Color primaries : BT.7094 [2 a1 W: ~1 P* T2 I
Transfer characteristics : BT.709
) k9 L6 O1 M9 ^/ O/ l3 E; QMatrix coefficients : BT.7090 W$ f$ q* ], k

1 @9 c7 h, ?( rAudio
. j. l: d7 i; ]$ ?. d: ZID : 2- c" p+ V! Z4 x7 e: }/ i
Format : E-AC-3
$ K" E# J( t" d! h( ~9 jFormat/Info : Enhanced AC-3
) B9 f7 u! p( J& ?( \" W4 g  x" ICommercial name : Dolby Digital Plus7 [1 V; {, U, W( F3 X' e* m" r
Codec ID : A_EAC3
  T1 |! N3 o2 ~  x4 x- @& GDuration : 1 h 19 min5 K% }0 U( q( D4 B$ n! [9 v
Bit rate mode : Constant
$ a, o/ e- @" D$ K% u/ hBit rate : 640 kb/s3 ^7 }0 A& p0 Z& ]/ A0 _
Channel(s) : 6 channels
8 R4 D, T2 d6 }6 @Channel layout : L R C LFE Ls Rs
; A- h% L& I+ N3 Q$ @2 ZSampling rate : 48.0 kHz
' O! Z! o5 Z1 i; K0 G1 IFrame rate : 31.250 FPS (1536 SPF)
- f$ P4 n- v1 u7 e- I1 J2 gCompression mode : Lossy
- Q' }" W1 A! @4 X( b) [Stream size : 363 MiB (6%)+ P3 y/ M$ l4 c: e$ E6 n, L- I
Language : English3 c( z0 ?4 Y2 j$ i+ [5 c4 k
Service kind : Complete Main
+ a5 w) C( U6 _3 g3 P% hDefault : Yes+ i1 b) j- ]/ p3 Y7 O: B
Forced : No$ B: l* z0 Y  T* h! O) }- {
* f& T, D1 d+ U7 U' q$ L( a
Text
# o2 C9 w" }  O* T2 p: nID : 3
& J! x/ B5 m- l5 I* Q5 QFormat : UTF-8
" i. w, R5 y9 i: |! V" ~1 E6 kCodec ID : S_TEXT/UTF8
) r# F1 u9 Z$ }, {+ H, g* Z, iCodec ID/Info : UTF-8 Plain Text
( w' q! Y( N, D- N; Y+ P8 ZDuration : 1 h 19 min
" [5 A. L6 ?' d/ R- ~& ?Bit rate : 26 b/s
& R) F5 u* x( b9 L: XCount of elements : 632% \- W/ p: f9 ~+ h/ P
Stream size : 15.6 KiB (0%)
! e% b0 c6 K% b; u; eTitle : SDH
* R, X) u, g' J4 U# U. L, eLanguage : English) x3 k% M) c1 c7 V
Default : No
) L/ ^* d7 i) P+ M3 T* }

0 Y& b; N1 |. b
$ B/ z9 `" i5 V- d/ O0 t

正義的子彈. MKV.torrent

29.54 KB, 下載次數: 75

回復樓主 親!! 早上好! 心底有WK、心情就會飛翔,心中要個希望、笑容就會清爽!

 分享同時學會感恩,一句感謝的話語,就是最大的支持!  歡迎交流討論
您需要登錄後才可以回帖 登錄 | 立即注册

本版積分規則

c重要聲明:本論壇是以即時上載言論的方式運作,WK論壇對所有言論的真實性、立場及版權等,不負任何法律責任。而一切言論只代表發佈者個人意見,並非本網站之立場,讀者及用戶務必自行判斷內容之真實性。 由於本論壇受到「即時上載言論」運作方式所規限,故不能完全監察所有言論,若讀者及用戶發現有內容出現「真實性、立場及版權」等問題,請聯絡我們:[email protected]論壇有權刪除任何言論(刪除前或不會作事先警告及通知)| SiteMap[網站地圖]

發表新帖 返回頂部